<?xml version="1.0" standalone="no"?>
<!DOCTYPE svg PUBLIC "-//W3C//DTD SVG 1.1//EN" "http://www.w3.org/Graphics/SVG/1.1/DTD/svg11.dtd" >
<svg xmlns="http://www.w3.org/2000/svg">
<defs>
  <font id="iconly" horiz-adv-x="1024">
    <font-face font-family="iconly"
      units-per-em="1024" ascent="896"
      descent="128" />
    <missing-glyph horiz-adv-x="0" />
    <glyph glyph-name="plus"
      unicode="&#xE000;"
      horiz-adv-x="895.5537099041368" d="M831.585587768127 479.8473854289214H543.729038156083V767.7039350409655C543.729038156083 803.0263324829433 515.0833134620511 831.6720571769752 479.7609160200732 831.6720571769752H415.7927938840635C380.4703964420856 831.6720571769752 351.8246717480538 803.0263324829433 351.8246717480538 767.7039350409655V479.8473854289214H63.9681221360098C28.6457246940319 479.8473854289214 0 451.2016607348895 0 415.8792632929117V351.9111411569019C0 316.588743714924 28.6457246940319 287.9430190208922 63.9681221360098 287.9430190208922H351.8246717480538V0.0864694088482C351.8246717480538 -35.2359280331298 380.4703964420857 -63.8816527271616 415.7927938840635 -63.8816527271616H479.7609160200732C515.0833134620511 -63.8816527271616 543.729038156083 -35.2359280331298 543.729038156083 0.0864694088482V287.9430190208922H831.585587768127C866.9079852101049 287.9430190208922 895.5537099041368 316.588743714924 895.5537099041368 351.9111411569019V415.8792632929117C895.5537099041368 451.2016607348896 866.9079852101049 479.8473854289214 831.585587768127 479.8473854289214z" />
    <glyph glyph-name="plus-1"
      unicode="&#x70;&#x6C;&#x75;&#x73;"
      horiz-adv-x="895.5537099041368" d="M831.585587768127 479.8473854289214H543.729038156083V767.7039350409655C543.729038156083 803.0263324829433 515.0833134620511 831.6720571769752 479.7609160200732 831.6720571769752H415.7927938840635C380.4703964420856 831.6720571769752 351.8246717480538 803.0263324829433 351.8246717480538 767.7039350409655V479.8473854289214H63.9681221360098C28.6457246940319 479.8473854289214 0 451.2016607348895 0 415.8792632929117V351.9111411569019C0 316.588743714924 28.6457246940319 287.9430190208922 63.9681221360098 287.9430190208922H351.8246717480538V0.0864694088482C351.8246717480538 -35.2359280331298 380.4703964420857 -63.8816527271616 415.7927938840635 -63.8816527271616H479.7609160200732C515.0833134620511 -63.8816527271616 543.729038156083 -35.2359280331298 543.729038156083 0.0864694088482V287.9430190208922H831.585587768127C866.9079852101049 287.9430190208922 895.5537099041368 316.588743714924 895.5537099041368 351.9111411569019V415.8792632929117C895.5537099041368 451.2016607348896 866.9079852101049 479.8473854289214 831.585587768127 479.8473854289214z" />
    <glyph glyph-name="minus"
      unicode="&#xE001;"
      horiz-adv-x="893.7641930109211" d="M829.9238935101409 480.448527979227H63.8402995007801C28.5884841201931 480.4465329698676 0 451.8580488496745 0 416.6062334690875V352.7659339683073C0 317.5141185877203 28.5884841201931 288.9256344675273 63.8402995007801 288.9256344675273H829.9238935101409C865.1757088907281 288.9256344675273 893.7641930109211 317.5141185877203 893.7641930109211 352.7659339683073V416.6062334690875C893.7641930109211 451.8580488496744 865.1757088907281 480.4465329698675 829.9238935101409 480.4465329698675z" />
    <glyph glyph-name="minus-1"
      unicode="&#x6D;&#x69;&#x6E;&#x75;&#x73;"
      horiz-adv-x="893.7641930109211" d="M829.9238935101409 480.448527979227H63.8402995007801C28.5884841201931 480.4465329698676 0 451.8580488496745 0 416.6062334690875V352.7659339683073C0 317.5141185877203 28.5884841201931 288.9256344675273 63.8402995007801 288.9256344675273H829.9238935101409C865.1757088907281 288.9256344675273 893.7641930109211 317.5141185877203 893.7641930109211 352.7659339683073V416.6062334690875C893.7641930109211 451.8580488496744 865.1757088907281 480.4465329698675 829.9238935101409 480.4465329698675z" />
    <glyph glyph-name="unlocked"
      unicode="&#xE002;"
      horiz-adv-x="1024" d="M426.667 341.333C473.6 341.333 512 303.36 512 256S474.027 170.667 426.6670000000001 170.667S341.3330000000001 208.64 341.3330000000001 256S379.733 341.333 426.6670000000001 341.333M768 853.333C650.24 853.333 554.667 757.76 554.667 640V554.667H170.667C123.733 554.667 85.333 516.267 85.333 469.333V42.667C85.333 -4.2669999999999 123.733 -42.6669999999999 170.667 -42.6669999999999H682.667C729.6 -42.6669999999999 768 -4.2669999999999 768 42.6670000000001V469.333C768 516.267 729.6 554.667 682.667 554.667H640V640C640 710.827 697.173 768 768 768S896 710.827 896 640V554.667H981.333V640C981.333 757.76 885.76 853.333 768 853.333M682.667 469.333V42.6669999999999H170.667V469.333H682.667z" />
    <glyph glyph-name="unlocked-1"
      unicode="&#x75;&#x6E;&#x6C;&#x6F;&#x63;&#x6B;&#x65;&#x64;"
      horiz-adv-x="1024" d="M426.667 341.333C473.6 341.333 512 303.36 512 256S474.027 170.667 426.6670000000001 170.667S341.3330000000001 208.64 341.3330000000001 256S379.733 341.333 426.6670000000001 341.333M768 853.333C650.24 853.333 554.667 757.76 554.667 640V554.667H170.667C123.733 554.667 85.333 516.267 85.333 469.333V42.667C85.333 -4.2669999999999 123.733 -42.6669999999999 170.667 -42.6669999999999H682.667C729.6 -42.6669999999999 768 -4.2669999999999 768 42.6670000000001V469.333C768 516.267 729.6 554.667 682.667 554.667H640V640C640 710.827 697.173 768 768 768S896 710.827 896 640V554.667H981.333V640C981.333 757.76 885.76 853.333 768 853.333M682.667 469.333V42.6669999999999H170.667V469.333H682.667z" />
    <glyph glyph-name="locked"
      unicode="&#xE003;"
      horiz-adv-x="1024" d="M512 170.667C464.64 170.667 426.6670000000001 209.067 426.6670000000001 256C426.6670000000001 303.36 464.64 341.333 512 341.333A85.333 85.333 0 0 0 597.333 256A85.333 85.333 0 0 0 512 170.667M768 42.667V469.333H256V42.667H768M768 554.667A85.333 85.333 0 0 0 853.333 469.333V42.667A85.333 85.333 0 0 0 768 -42.667H256C208.64 -42.667 170.667 -4.2670000000001 170.667 42.6669999999999V469.333C170.667 516.693 208.64 554.667 256 554.667H298.6670000000001V640A213.333 213.333 0 0 0 512 853.333A213.333 213.333 0 0 0 725.333 640V554.667H768M512 768A128 128 0 0 1 384 640V554.667H640V640A128 128 0 0 1 512 768z" />
    <glyph glyph-name="locked-1"
      unicode="&#x6C;&#x6F;&#x63;&#x6B;&#x65;&#x64;"
      horiz-adv-x="1024" d="M512 170.667C464.64 170.667 426.6670000000001 209.067 426.6670000000001 256C426.6670000000001 303.36 464.64 341.333 512 341.333A85.333 85.333 0 0 0 597.333 256A85.333 85.333 0 0 0 512 170.667M768 42.667V469.333H256V42.667H768M768 554.667A85.333 85.333 0 0 0 853.333 469.333V42.667A85.333 85.333 0 0 0 768 -42.667H256C208.64 -42.667 170.667 -4.2670000000001 170.667 42.6669999999999V469.333C170.667 516.693 208.64 554.667 256 554.667H298.6670000000001V640A213.333 213.333 0 0 0 512 853.333A213.333 213.333 0 0 0 725.333 640V554.667H768M512 768A128 128 0 0 1 384 640V554.667H640V640A128 128 0 0 1 512 768z" />
    <glyph glyph-name="wifi-strength-1"
      unicode="&#xE004;"
      horiz-adv-x="1022.9733303792667" d="M511.4866651896334 768.1283337025917C332.0397604864727 768.1283337025917 157.7087214326013 708.0286505428097 16.1967447318741 597.6324456402496C187.9713494571903 381.9559014844185 336.3024823621839 198.2472739029395 511.4866651896334 -20.4132754656288C685.3921313541088 196.1154134663874 862.7071756207173 416.9078232715078 1008.0553023103668 597.6324456402497C866.1177527202434 708.0286505428097 691.3591427821901 768.1283337025917 511.4866651896334 768.1283337025917M511.4866651896334 682.8808891701171C642.3423366997788 682.8808891701171 771.0661477733722 646.2236788332648 882.7410693389065 578.4516956956384L665.3592366333123 307.3637631451326C618.0467201032712 329.95509018927 564.7661931477559 341.8891130454328 511.4866651896333 341.8891130454328C458.2071372315108 341.8891130454328 404.9266102759954 329.9550901892699 357.6140937459543 307.7903350319215L139.3801162641751 578.8782675824273C251.9071826058945 646.6502507200537 380.6309936794878 682.8808891701171 511.4866651896334 682.8808891701171z" />
    <glyph glyph-name="wifi-strength-1-1"
      unicode="&#x77;&#x69;&#x66;&#x69;&#x5F;&#x73;&#x74;&#x72;&#x65;&#x6E;&#x67;&#x74;&#x68;&#x5F;&#x31;"
      horiz-adv-x="1022.9733303792667" d="M511.4866651896334 768.1283337025917C332.0397604864727 768.1283337025917 157.7087214326013 708.0286505428097 16.1967447318741 597.6324456402496C187.9713494571903 381.9559014844185 336.3024823621839 198.2472739029395 511.4866651896334 -20.4132754656288C685.3921313541088 196.1154134663874 862.7071756207173 416.9078232715078 1008.0553023103668 597.6324456402497C866.1177527202434 708.0286505428097 691.3591427821901 768.1283337025917 511.4866651896334 768.1283337025917M511.4866651896334 682.8808891701171C642.3423366997788 682.8808891701171 771.0661477733722 646.2236788332648 882.7410693389065 578.4516956956384L665.3592366333123 307.3637631451326C618.0467201032712 329.95509018927 564.7661931477559 341.8891130454328 511.4866651896333 341.8891130454328C458.2071372315108 341.8891130454328 404.9266102759954 329.9550901892699 357.6140937459543 307.7903350319215L139.3801162641751 578.8782675824273C251.9071826058945 646.6502507200537 380.6309936794878 682.8808891701171 511.4866651896334 682.8808891701171z" />
    <glyph glyph-name="wifi-strength-0"
      unicode="&#xE005;"
      horiz-adv-x="1022.9733303792667" d="M511.4866651896334 768.1283337025917C332.4663323732617 768.1283337025917 157.7087214326013 708.4552224295987 17.0498885054521 597.6324456402496C183.283054692083 393.0377795643962 349.5162208787138 184.1813906102245 511.4866651896334 -20.4132754656289C609.5212763518488 103.1956689560682 711.8186093897755 226.8046133777654 809.8542195493837 350.4145567968553V486.8106678482933L511.4866651896334 115.9828355858092L140.6588329271492 580.5835561321903C251.4806107191054 648.7811121592129 379.3522770165138 682.8808891701171 511.4866651896334 682.8808891701171S771.4927196601614 644.5193892808945 882.3144974521176 580.5835561321903L865.2646089466655 555.0092228727087H976.0873857360147C988.8745523657554 567.7963895024495 997.398997119785 584.8452790105086 1010.186163749526 597.6324456402496C865.2646089466655 708.4552224295987 690.5069980060051 768.1283337025917 511.4866651896334 768.1283337025917M895.1016640818584 469.7607793428413V214.0174467480247H980.349108614333V469.7607793428413M895.1016640818584 128.77000221555V43.5225576830754H980.349108614333V128.77000221555" />
    <glyph glyph-name="wifi-strength-0-1"
      unicode="&#x77;&#x69;&#x66;&#x69;&#x5F;&#x73;&#x74;&#x72;&#x65;&#x6E;&#x67;&#x74;&#x68;&#x5F;&#x30;"
      horiz-adv-x="1022.9733303792667" d="M511.4866651896334 768.1283337025917C332.4663323732617 768.1283337025917 157.7087214326013 708.4552224295987 17.0498885054521 597.6324456402496C183.283054692083 393.0377795643962 349.5162208787138 184.1813906102245 511.4866651896334 -20.4132754656289C609.5212763518488 103.1956689560682 711.8186093897755 226.8046133777654 809.8542195493837 350.4145567968553V486.8106678482933L511.4866651896334 115.9828355858092L140.6588329271492 580.5835561321903C251.4806107191054 648.7811121592129 379.3522770165138 682.8808891701171 511.4866651896334 682.8808891701171S771.4927196601614 644.5193892808945 882.3144974521176 580.5835561321903L865.2646089466655 555.0092228727087H976.0873857360147C988.8745523657554 567.7963895024495 997.398997119785 584.8452790105086 1010.186163749526 597.6324456402496C865.2646089466655 708.4552224295987 690.5069980060051 768.1283337025917 511.4866651896334 768.1283337025917M895.1016640818584 469.7607793428413V214.0174467480247H980.349108614333V469.7607793428413M895.1016640818584 128.77000221555V43.5225576830754H980.349108614333V128.77000221555" />
    <glyph glyph-name="wifi-strength-2"
      unicode="&#xE006;"
      horiz-adv-x="1022.9733303792667" d="M511.4866651896334 768.1283337025917C332.0397604864727 768.1283337025917 157.7087214326013 708.0286505428097 16.1967447318741 597.6324456402496C187.9713494571903 381.9559014844185 336.3024823621839 198.2472739029395 511.4866651896334 -20.4132754656288C685.3921313541088 196.1154134663874 862.7071756207173 416.9078232715078 1008.0553023103668 597.6324456402497C866.1177527202434 708.0286505428097 691.3591427821901 768.1283337025917 511.4866651896334 768.1283337025917M511.4866651896334 682.8808891701171C642.3423366997788 682.8808891701171 771.0661477733722 646.2236788332648 882.7410693389065 578.4516956956384L745.9183864006797 408.8089514068742C693.0644313319532 438.2194346552781 612.505281564586 469.7607793428413 511.4866651896334 469.7607793428413C410.0414769278917 469.7607793428413 329.9088990473136 437.7928627684892 277.0549439785871 408.8089514068743L139.3801162641751 578.8782675824273C251.9071826058945 646.6502507200537 380.6309936794878 682.8808891701171 511.4866651896334 682.8808891701171z" />
    <glyph glyph-name="wifi-strength-2-1"
      unicode="&#x77;&#x69;&#x66;&#x69;&#x5F;&#x73;&#x74;&#x72;&#x65;&#x6E;&#x67;&#x74;&#x68;&#x5F;&#x32;"
      horiz-adv-x="1022.9733303792667" d="M511.4866651896334 768.1283337025917C332.0397604864727 768.1283337025917 157.7087214326013 708.0286505428097 16.1967447318741 597.6324456402496C187.9713494571903 381.9559014844185 336.3024823621839 198.2472739029395 511.4866651896334 -20.4132754656288C685.3921313541088 196.1154134663874 862.7071756207173 416.9078232715078 1008.0553023103668 597.6324456402497C866.1177527202434 708.0286505428097 691.3591427821901 768.1283337025917 511.4866651896334 768.1283337025917M511.4866651896334 682.8808891701171C642.3423366997788 682.8808891701171 771.0661477733722 646.2236788332648 882.7410693389065 578.4516956956384L745.9183864006797 408.8089514068742C693.0644313319532 438.2194346552781 612.505281564586 469.7607793428413 511.4866651896334 469.7607793428413C410.0414769278917 469.7607793428413 329.9088990473136 437.7928627684892 277.0549439785871 408.8089514068743L139.3801162641751 578.8782675824273C251.9071826058945 646.6502507200537 380.6309936794878 682.8808891701171 511.4866651896334 682.8808891701171z" />
    <glyph glyph-name="error"
      unicode="&#xE007;"
      horiz-adv-x="1024" d="M512 810.667C747.605 810.667 938.667 619.605 938.667 384C938.667 148.395 747.6049999999999 -42.6669999999999 511.9999999999999 -42.6669999999999C276.395 -42.6669999999999 85.333 148.3950000000001 85.333 384.0000000000001C85.333 619.605 276.395 810.667 512 810.667zM512 725.333C323.7970000000001 725.333 170.667 572.203 170.667 384C170.667 195.797 323.797 42.6669999999999 512 42.6669999999999C700.203 42.6669999999999 853.3330000000001 195.7969999999999 853.3330000000001 384C853.3330000000001 572.203 700.2030000000001 725.3330000000001 512 725.3330000000001zM609.835 542.165L670.1650000000001 481.835L572.33 384L670.1650000000001 286.165L609.835 225.8349999999999L512 323.67L414.165 225.8349999999999L353.8350000000001 286.165L451.67 384L353.8350000000001 481.835L414.165 542.165L512 444.33L609.835 542.165z" />
    <glyph glyph-name="error-1"
      unicode="&#x65;&#x72;&#x72;&#x6F;&#x72;"
      horiz-adv-x="1024" d="M512 810.667C747.605 810.667 938.667 619.605 938.667 384C938.667 148.395 747.6049999999999 -42.6669999999999 511.9999999999999 -42.6669999999999C276.395 -42.6669999999999 85.333 148.3950000000001 85.333 384.0000000000001C85.333 619.605 276.395 810.667 512 810.667zM512 725.333C323.7970000000001 725.333 170.667 572.203 170.667 384C170.667 195.797 323.797 42.6669999999999 512 42.6669999999999C700.203 42.6669999999999 853.3330000000001 195.7969999999999 853.3330000000001 384C853.3330000000001 572.203 700.2030000000001 725.3330000000001 512 725.3330000000001zM609.835 542.165L670.1650000000001 481.835L572.33 384L670.1650000000001 286.165L609.835 225.8349999999999L512 323.67L414.165 225.8349999999999L353.8350000000001 286.165L451.67 384L353.8350000000001 481.835L414.165 542.165L512 444.33L609.835 542.165z" />
    <glyph glyph-name="wifi-strength-3"
      unicode="&#xE008;"
      horiz-adv-x="1022.9733303792667" d="M511.4866651896334 768.1283337025917C332.0397604864727 768.1283337025917 157.7087214326013 708.0286505428097 16.1967447318741 597.6324456402496C187.9713494571903 381.9559014844185 336.3024823621839 198.2472739029395 511.4866651896334 -20.4132754656288C685.3921313541088 196.1154134663874 862.7071756207173 416.9078232715078 1008.0553023103668 597.6324456402497C866.1177527202434 708.0286505428097 691.3591427821901 768.1283337025917 511.4866651896334 768.1283337025917M511.4866651896334 682.8808891701171C642.3423366997788 682.8808891701171 771.0661477733722 646.2236788332648 882.7410693389065 578.4516956956384L800.0500591349871 474.8756459947375C735.688653096887 512.385001107775 634.2434648351453 555.0092228727087 511.4866651896334 555.0092228727087C383.614998892225 555.0092228727087 284.7272439564316 512.385001107775 222.0701274707015 476.5809345445006L139.3801162641751 578.8782675824273C251.9071826058945 646.6502507200537 380.6309936794878 682.8808891701171 511.4866651896334 682.8808891701171z" />
    <glyph glyph-name="wifi-strength-3-1"
      unicode="&#x77;&#x69;&#x66;&#x69;&#x5F;&#x73;&#x74;&#x72;&#x65;&#x6E;&#x67;&#x74;&#x68;&#x5F;&#x33;"
      horiz-adv-x="1022.9733303792667" d="M511.4866651896334 768.1283337025917C332.0397604864727 768.1283337025917 157.7087214326013 708.0286505428097 16.1967447318741 597.6324456402496C187.9713494571903 381.9559014844185 336.3024823621839 198.2472739029395 511.4866651896334 -20.4132754656288C685.3921313541088 196.1154134663874 862.7071756207173 416.9078232715078 1008.0553023103668 597.6324456402497C866.1177527202434 708.0286505428097 691.3591427821901 768.1283337025917 511.4866651896334 768.1283337025917M511.4866651896334 682.8808891701171C642.3423366997788 682.8808891701171 771.0661477733722 646.2236788332648 882.7410693389065 578.4516956956384L800.0500591349871 474.8756459947375C735.688653096887 512.385001107775 634.2434648351453 555.0092228727087 511.4866651896334 555.0092228727087C383.614998892225 555.0092228727087 284.7272439564316 512.385001107775 222.0701274707015 476.5809345445006L139.3801162641751 578.8782675824273C251.9071826058945 646.6502507200537 380.6309936794878 682.8808891701171 511.4866651896334 682.8808891701171z" />
    <glyph glyph-name="down"
      unicode="&#xE009;"
      horiz-adv-x="893.7641930109211" d="M824.1383663678829 451.520892267936L868.427574146549 407.2306869845902C887.180662124903 388.477599006236 887.180662124903 358.1514617340061 868.427574146549 339.5978746915919L480.79725561525 -48.2279547569284C462.0441676368958 -66.9810427352825 431.7200253740253 -66.9810427352825 413.1664383316111 -48.2279547569284L25.3366188643721 339.6018647103107C6.5835308860179 358.3549526886648 6.5835308860179 388.6790949515354 25.3366188643721 407.2326819939496L69.6258266430383 451.5218897726157C88.5784155573323 470.4744786869098 119.5010606280227 470.07547681503 138.0546476704369 450.723886028856L367.0817221294855 210.325258221231V783.690948112612C367.0817221294855 810.2245725926238 388.4283222750588 831.5711727381971 414.9619467550705 831.5711727381971H478.8022462558506C505.3358707358623 831.5711727381971 526.6824708814356 810.2245725926238 526.6824708814356 783.690948112612V210.325258221231L755.7095453404842 450.723886028856C774.2631323828984 470.2749777509699 805.1857774535888 470.6739796228497 824.1383663678829 451.5218897726157z" />
    <glyph glyph-name="down-1"
      unicode="&#x64;&#x6F;&#x77;&#x6E;"
      horiz-adv-x="893.7641930109211" d="M824.1383663678829 451.520892267936L868.427574146549 407.2306869845902C887.180662124903 388.477599006236 887.180662124903 358.1514617340061 868.427574146549 339.5978746915919L480.79725561525 -48.2279547569284C462.0441676368958 -66.9810427352825 431.7200253740253 -66.9810427352825 413.1664383316111 -48.2279547569284L25.3366188643721 339.6018647103107C6.5835308860179 358.3549526886648 6.5835308860179 388.6790949515354 25.3366188643721 407.2326819939496L69.6258266430383 451.5218897726157C88.5784155573323 470.4744786869098 119.5010606280227 470.07547681503 138.0546476704369 450.723886028856L367.0817221294855 210.325258221231V783.690948112612C367.0817221294855 810.2245725926238 388.4283222750588 831.5711727381971 414.9619467550705 831.5711727381971H478.8022462558506C505.3358707358623 831.5711727381971 526.6824708814356 810.2245725926238 526.6824708814356 783.690948112612V210.325258221231L755.7095453404842 450.723886028856C774.2631323828984 470.2749777509699 805.1857774535888 470.6739796228497 824.1383663678829 451.5218897726157z" />
    <glyph glyph-name="wifi-strength-4"
      unicode="&#xE00A;"
      horiz-adv-x="1022.9733303792667" d="M511.4866651896334 768.1283337025917C332.0397604864727 768.1283337025917 157.7087214326013 708.0286505428097 16.1967447318741 597.6324456402496C187.9713494571903 381.9559014844185 336.3024823621839 198.2472739029395 511.4866651896334 -20.4132754656288C685.3921313541088 196.1154134663874 862.7071756207173 416.9078232715078 1008.0553023103668 597.6324456402497C866.1177527202434 708.0286505428097 691.3591427821901 768.1283337025917 511.4866651896334 768.1283337025917z" />
    <glyph glyph-name="wifi-strength-4-1"
      unicode="&#x77;&#x69;&#x66;&#x69;&#x5F;&#x73;&#x74;&#x72;&#x65;&#x6E;&#x67;&#x74;&#x68;&#x5F;&#x34;"
      horiz-adv-x="1022.9733303792667" d="M511.4866651896334 768.1283337025917C332.0397604864727 768.1283337025917 157.7087214326013 708.0286505428097 16.1967447318741 597.6324456402496C187.9713494571903 381.9559014844185 336.3024823621839 198.2472739029395 511.4866651896334 -20.4132754656288C685.3921313541088 196.1154134663874 862.7071756207173 416.9078232715078 1008.0553023103668 597.6324456402497C866.1177527202434 708.0286505428097 691.3591427821901 768.1283337025917 511.4866651896334 768.1283337025917z" />
    <glyph glyph-name="success"
      unicode="&#xE00B;"
      horiz-adv-x="1024" d="M512 810.667C276.36 810.667 85.333 619.64 85.333 384C85.333 148.36 276.3590000000001 -42.6669999999999 512 -42.6669999999999C747.64 -42.6669999999999 938.667 148.3590000000002 938.667 384.0000000000001C938.667 619.64 747.64 810.667 512 810.667zM512 42.667C323.79 42.667 170.667 195.789 170.667 384.0000000000001C170.667 572.21 323.789 725.3330000000001 512 725.3330000000001C700.21 725.3330000000001 853.3330000000001 572.211 853.3330000000001 384.0000000000001C853.3330000000001 195.7900000000001 700.211 42.667 512 42.667zM672.672 536.437L733.005 476.104L469.333 211.328L311.167 369.495L371.5 429.828L469.333 331.995L672.673 536.438z" />
    <glyph glyph-name="success-1"
      unicode="&#x73;&#x75;&#x63;&#x63;&#x65;&#x73;&#x73;"
      horiz-adv-x="1024" d="M512 810.667C276.36 810.667 85.333 619.64 85.333 384C85.333 148.36 276.3590000000001 -42.6669999999999 512 -42.6669999999999C747.64 -42.6669999999999 938.667 148.3590000000002 938.667 384.0000000000001C938.667 619.64 747.64 810.667 512 810.667zM512 42.667C323.79 42.667 170.667 195.789 170.667 384.0000000000001C170.667 572.21 323.789 725.3330000000001 512 725.3330000000001C700.21 725.3330000000001 853.3330000000001 572.211 853.3330000000001 384.0000000000001C853.3330000000001 195.7900000000001 700.211 42.667 512 42.667zM672.672 536.437L733.005 476.104L469.333 211.328L311.167 369.495L371.5 429.828L469.333 331.995L672.673 536.438z" />
    <glyph glyph-name="up"
      unicode="&#xE00C;"
      horiz-adv-x="893.7641930109211" d="M69.6258266430383 317.8562626928574L25.3366188643721 362.1454704715236C6.5835308860179 380.8985584498777 6.5835308860179 411.2227007127483 25.3366188643721 429.7762877551625L412.9669373956711 817.6021172036826C431.7200253740253 836.3552051820368 462.0441676368958 836.3552051820368 480.59775467931 817.6021172036826L868.2280732106092 429.9717986723836C886.9811611889633 411.2187106940295 886.9811611889633 380.894568431159 868.2280732106092 362.3409813887447L823.938865431943 318.0517736100786C804.9862765176489 299.0991846957845 774.0636314469585 299.4981865676644 755.5100444045443 318.8497773538383L526.6824708814356 559.0528942442421V-14.3127956471388C526.6824708814356 -40.8464201271506 505.3358707358623 -62.1930202727239 478.8022462558506 -62.1930202727239H414.9619467550705C388.4283222750588 -62.1930202727239 367.0817221294855 -40.8464201271506 367.0817221294855 -14.3127956471388V559.0528942442422L138.0546476704369 318.6542664366173C119.5010606280227 299.1031747145034 88.5784155573324 298.7041728426234 69.6258266430383 317.8562626928575z" />
    <glyph glyph-name="up-1"
      unicode="&#x75;&#x70;"
      horiz-adv-x="893.7641930109211" d="M69.6258266430383 317.8562626928574L25.3366188643721 362.1454704715236C6.5835308860179 380.8985584498777 6.5835308860179 411.2227007127483 25.3366188643721 429.7762877551625L412.9669373956711 817.6021172036826C431.7200253740253 836.3552051820368 462.0441676368958 836.3552051820368 480.59775467931 817.6021172036826L868.2280732106092 429.9717986723836C886.9811611889633 411.2187106940295 886.9811611889633 380.894568431159 868.2280732106092 362.3409813887447L823.938865431943 318.0517736100786C804.9862765176489 299.0991846957845 774.0636314469585 299.4981865676644 755.5100444045443 318.8497773538383L526.6824708814356 559.0528942442421V-14.3127956471388C526.6824708814356 -40.8464201271506 505.3358707358623 -62.1930202727239 478.8022462558506 -62.1930202727239H414.9619467550705C388.4283222750588 -62.1930202727239 367.0817221294855 -40.8464201271506 367.0817221294855 -14.3127956471388V559.0528942442422L138.0546476704369 318.6542664366173C119.5010606280227 299.1031747145034 88.5784155573324 298.7041728426234 69.6258266430383 317.8562626928575z" />
    <glyph glyph-name="alarm"
      unicode="&#xE00D;"
      horiz-adv-x="1024" d="M512 810.667C747.22 810.667 938.667 619.22 938.667 384C938.667 148.78 747.2199999999999 -42.6669999999999 511.9999999999999 -42.6669999999999C276.78 -42.667 85.333 148.78 85.333 384C85.333 619.22 276.78 810.667 512 810.667zM512 725.333C323.082 725.333 170.667 572.918 170.667 384C170.667 195.082 323.082 42.6669999999999 512 42.6669999999999C700.918 42.6669999999999 853.3330000000001 195.0819999999999 853.3330000000001 384C853.3330000000001 572.918 700.9180000000001 725.3330000000001 512 725.3330000000001zM512 266.581C542.476 266.581 565.333 244.054 565.333 213.3340000000001S542.476 160.085 512 160.085C480.83 160.085 458.667 182.6130000000001 458.667 214.015C458.667 244.053 481.524 266.581 512 266.581zM554.667 640V341.3330000000001H469.333V640H554.667z" />
    <glyph glyph-name="alarm-1"
      unicode="&#x61;&#x6C;&#x61;&#x72;&#x6D;"
      horiz-adv-x="1024" d="M512 810.667C747.22 810.667 938.667 619.22 938.667 384C938.667 148.78 747.2199999999999 -42.6669999999999 511.9999999999999 -42.6669999999999C276.78 -42.667 85.333 148.78 85.333 384C85.333 619.22 276.78 810.667 512 810.667zM512 725.333C323.082 725.333 170.667 572.918 170.667 384C170.667 195.082 323.082 42.6669999999999 512 42.6669999999999C700.918 42.6669999999999 853.3330000000001 195.0819999999999 853.3330000000001 384C853.3330000000001 572.918 700.9180000000001 725.3330000000001 512 725.3330000000001zM512 266.581C542.476 266.581 565.333 244.054 565.333 213.3340000000001S542.476 160.085 512 160.085C480.83 160.085 458.667 182.6130000000001 458.667 214.015C458.667 244.053 481.524 266.581 512 266.581zM554.667 640V341.3330000000001H469.333V640H554.667z" />
  </font>
</defs>
</svg>
